<?xml version="1.0" standalone="no"?>
<!DOCTYPE svg PUBLIC "-//W3C//DTD SVG 1.1//EN" "http://www.w3.org/Graphics/SVG/1.1/DTD/svg11.dtd" >
<svg xmlns="http://www.w3.org/2000/svg">
<metadata></metadata>
<defs>
<font id="bebas_neuelight" horiz-adv-x="770" >
<font-face units-per-em="2048" ascent="1536" descent="-512" />
<missing-glyph horiz-adv-x="317" />
<glyph horiz-adv-x="0" />
<glyph unicode="&#xd;" horiz-adv-x="317" />
<glyph horiz-adv-x="0" />
<glyph horiz-adv-x="0" />
<glyph unicode=" "  horiz-adv-x="317" />
<glyph unicode="&#x09;" horiz-adv-x="317" />
<glyph unicode="&#xa0;" horiz-adv-x="317" />
<glyph unicode="!" horiz-adv-x="208" d="M82 0v164h45v-164h-45zM82 631v805h45v-805l-6 -314h-33z" />
<glyph unicode="&#x22;" horiz-adv-x="329" d="M82 1436h45l-4 -330h-37zM205 1436h43l-4 -330h-35z" />
<glyph unicode="#" horiz-adv-x="849" d="M76 473l2 35h149l52 500h-150l2 34h152l39 394h40l-40 -394h280l41 394h41l-41 -394h131l-2 -34h-133l-51 -500h131l-2 -35h-133l-49 -473h-41l51 473h-283l-49 -473h-41l51 473h-147zM266 508h281l53 500h-283z" />
<glyph unicode="$" horiz-adv-x="757" d="M80 348v72h45v-74q0 -66 13.5 -122t43 -98t77.5 -66.5t120 -24.5t121 24.5t78.5 66.5t43 98.5t13.5 121.5q0 90 -41 152.5t-101.5 113t-132 93.5t-132 95t-101.5 120.5t-41 166.5q0 152 64.5 248.5t211.5 106.5v129h39v-129q76 -4 129.5 -34t86 -78t47 -111.5 t14.5 -133.5v-26h-43v28q0 63 -13.5 120t-43 100t-77.5 67.5t-118 24.5t-118 -24.5t-77.5 -66.5t-43 -98.5t-13.5 -119.5q0 -92 41 -156t101.5 -114t132 -93t132 -95t101.5 -120t41 -164q0 -72 -15.5 -135t-48 -110.5t-86 -77t-129.5 -33.5v-117h-39v117q-78 2 -131 31.5 t-86.5 78t-49 111.5t-15.5 135z" />
<glyph unicode="%" horiz-adv-x="1222" d="M80 780v422q0 45 9 88t30.5 75t57.5 51.5t87 19.5t87 -19.5t58.5 -51.5t32 -75t9.5 -88v-422q0 -47 -9.5 -89t-32 -73.5t-58.5 -51t-87 -19.5t-87 19.5t-57.5 51t-30.5 73.5t-9 89zM115 778q0 -37 7 -72.5t23.5 -63.5t46 -45t72.5 -17t73 17t46 45t23.5 63.5t7.5 72.5 v424q0 39 -7.5 75t-23.5 63.5t-46 45t-73 17.5t-72.5 -17.5t-46 -45t-23.5 -63.5t-7 -75v-424zM309 0l565 1436h35l-565 -1436h-35zM772 233v416q0 45 9.5 87t32 75t57 52.5t87.5 19.5q51 0 87 -19.5t57.5 -52.5t31 -75t9.5 -87v-416q0 -47 -9.5 -89t-31 -74.5t-57 -52 t-87.5 -19.5q-53 0 -87.5 19.5t-57 52t-32 74.5t-9.5 89zM809 231q0 -37 7 -72.5t23.5 -63t46 -45t72.5 -17.5t73 17.5t46.5 45t23.5 63.5t7 72v418q0 39 -7 75t-23.5 63.5t-46.5 44t-73 16.5t-72.5 -16.5t-46 -44t-23.5 -63.5t-7 -75v-418z" />
<glyph unicode="&#x26;" horiz-adv-x="817" d="M82 322v131q0 100 49 183t150 114q-102 25 -150.5 107.5t-48.5 180.5v39q0 172 85 264.5t261 92.5h182v-43h-182q-154 0 -227.5 -79t-73.5 -233v-47q0 -102 56.5 -179t162.5 -85h266v160h45v-160h86v-41h-86v-532q0 -53 5.5 -100.5t35.5 -94.5h-49q-20 35 -27.5 69.5 t-7.5 75.5q-33 -78 -100.5 -116.5t-151.5 -38.5q-74 0 -127 24.5t-86.5 69.5t-50 105.5t-16.5 132.5zM127 324q0 -61 13.5 -115.5t43 -93.5t76.5 -61.5t113 -22.5q104 0 171.5 61.5t67.5 167.5v467h-254q-111 -10 -171 -86t-60 -186v-131z" />
<glyph unicode="'" horiz-adv-x="206" d="M82 1436h43l-4 -330h-37z" />
<glyph unicode="(" horiz-adv-x="458" d="M84 319v797q0 72 11 130.5t41 100.5t81 65.5t129 23.5h37v-41h-35q-68 0 -110.5 -20.5t-66.5 -57.5t-33 -88t-9 -113v-797q0 -61 8 -112t33 -88t68 -57.5t110 -20.5h35v-41h-37q-80 0 -130 23.5t-80 65.5t-41 100.5t-11 129.5z" />
<glyph unicode=")" horiz-adv-x="458" d="M76 0v41h35q68 0 110.5 20.5t66 57.5t33 88t9.5 112v797q0 61 -9.5 112.5t-34 88.5t-66.5 57.5t-109 20.5h-35v41h35q78 0 129 -23.5t80.5 -65.5t42 -100.5t12.5 -130.5v-797q0 -72 -11.5 -130t-41 -100t-81 -65.5t-130.5 -23.5h-35z" />
<glyph unicode="*" horiz-adv-x="804" d="M90 1169l12 39l287 -92l-8 303h41l-6 -303l286 86l13 -39l-293 -71l178 -244l-31 -23l-168 250l-165 -248l-33 21l178 244z" />
<glyph unicode="+" horiz-adv-x="788" d="M78 698v37h299v301h37v-301h297v-37h-297v-305h-37v305h-299z" />
<glyph unicode="," horiz-adv-x="235" d="M86 -137l23 137v166h45v-164l-45 -139h-23z" />
<glyph unicode="-" horiz-adv-x="524" d="M80 696v41h364v-41h-364z" />
<glyph unicode="." horiz-adv-x="208" d="M82 0v166h45v-166h-45z" />
<glyph unicode="/" horiz-adv-x="753" d="M74 0l565 1434h41l-565 -1434h-41z" />
<glyph unicode="0" d="M80 352v729q0 76 16.5 142.5t53 116t95 77t140.5 27.5t140.5 -27.5t95 -77t53 -116t16.5 -142.5v-729q0 -76 -16.5 -141.5t-53 -114.5t-95 -77.5t-140.5 -28.5t-140.5 28.5t-95 77.5t-53 114.5t-16.5 141.5zM125 352q0 -68 14.5 -126t45 -101t79.5 -68.5t121 -25.5 t121 25.5t79.5 68.5t45 101.5t14.5 125.5v731q0 66 -14.5 124.5t-45 101.5t-79.5 68.5t-121 25.5t-121 -25.5t-79.5 -68.5t-45 -101.5t-14.5 -124.5v-731z" />
<glyph unicode="1" horiz-adv-x="487" d="M98 1188v41q96 10 154.5 66.5t87.5 140.5h43v-1436h-45v1348q-70 -141 -240 -160z" />
<glyph unicode="2" horiz-adv-x="757" d="M82 0v31q0 133 41 236.5t102.5 187.5t133 155.5t133 142t102.5 148.5t41 174q0 68 -12.5 127.5t-41 104.5t-78.5 70.5t-124 25.5q-72 0 -121 -26.5t-78.5 -73t-42 -105.5t-12.5 -123v-78h-43v76q0 74 15.5 141.5t51 118.5t92 81t140.5 30t141.5 -29t92 -79t50 -116.5 t15.5 -142.5q0 -100 -40 -180t-101.5 -153.5t-132 -144.5t-132 -151.5t-103.5 -177t-44 -219.5v-8h545v-43h-590z" />
<glyph unicode="3" horiz-adv-x="759" d="M80 352v68h45v-68q0 -66 13.5 -124t43 -102t77.5 -69.5t120 -25.5t121 25.5t78.5 69.5t43 102.5t13.5 125.5v109q0 117 -60.5 187.5t-177.5 76.5h-104v41h106q111 10 173.5 86t62.5 186v41q0 68 -13.5 126.5t-43 101.5t-78.5 68.5t-121 25.5t-120 -25.5t-77.5 -68.5 t-43 -101.5t-13.5 -124.5v-43h-45v41q0 76 16.5 141.5t52 114.5t93 78t139.5 29t139.5 -29t92 -78t51 -114.5t16.5 -141.5v-34q0 -104 -53.5 -185.5t-151.5 -111.5q104 -27 154.5 -105t50.5 -182v-111q0 -76 -16.5 -141.5t-51 -114.5t-92 -77.5t-139.5 -28.5t-139.5 28.5 t-93 77.5t-52 114.5t-16.5 141.5z" />
<glyph unicode="4" horiz-adv-x="831" d="M76 338v45l499 1053h56v-1055h125v-43h-125v-338h-45v338h-510zM119 381h467v975z" />
<glyph unicode="5" horiz-adv-x="759" d="M80 352v62h45v-62q0 -66 13.5 -124t43 -101t77.5 -68.5t120 -25.5t121 25.5t78.5 68.5t43 101.5t13.5 123.5v215q0 63 -13.5 122t-43 102t-78.5 68.5t-121 25.5q-88 0 -148.5 -45t-89.5 -127v-17h-43l37 740h518v-43h-477l-29 -592q41 66 100.5 96.5t143.5 30.5 q80 0 134.5 -29t89 -78t50 -113.5t15.5 -138.5v-217q0 -74 -16.5 -140.5t-52.5 -115.5t-92 -77.5t-138 -28.5t-139.5 28.5t-93 77.5t-52 116t-16.5 140z" />
<glyph unicode="6" horiz-adv-x="772" d="M80 352v729q0 76 16.5 142.5t53 116t95 77t142.5 27.5q82 0 138.5 -27.5t92 -75t52 -112t16.5 -139.5v-11h-43v13q0 66 -13.5 122t-43 98t-78.5 66.5t-121 24.5t-122 -25.5t-80.5 -68.5t-45 -102.5t-14.5 -127.5v-395q43 92 105.5 131t166.5 39q80 0 136.5 -27.5t91 -77 t51 -115t16.5 -138.5v-144q0 -76 -16.5 -141.5t-53 -114.5t-95 -77.5t-140.5 -28.5q-84 0 -142.5 28.5t-95 77.5t-53 114.5t-16.5 141.5zM125 352q0 -68 14.5 -126t45 -101t80.5 -67.5t122 -24.5t121 24.5t79.5 67.5t45 101.5t14.5 125.5v142q0 66 -14.5 123t-45 100 t-79.5 68.5t-121 25.5t-122 -25.5t-80.5 -69.5t-45 -101.5t-14.5 -120.5v-142z" />
<glyph unicode="7" horiz-adv-x="759" d="M80 1393v43h600v-43l-428 -1393h-47l428 1393h-553z" />
<glyph unicode="8" horiz-adv-x="788" d="M78 342v96q0 121 46 202t167 110q-117 27 -165 107.5t-48 197.5v47q0 154 77.5 248t237.5 94t238 -94.5t78 -247.5v-47q0 -113 -47.5 -197t-159.5 -108q117 -27 162 -111t45 -201v-96q0 -78 -18.5 -142.5t-57.5 -110.5t-98.5 -72.5t-141.5 -26.5t-141 26.5t-98 72.5 t-57.5 110.5t-18.5 142.5zM123 342q0 -137 65.5 -224t204.5 -87q141 0 206 87t65 224v100q0 141 -65 213t-206 72q-139 0 -204.5 -71.5t-65.5 -213.5v-100zM123 1051q0 -137 67.5 -210t202.5 -73q137 0 204 72.5t67 210.5v51q0 135 -67 218t-204 83t-203.5 -83t-66.5 -218 v-51z" />
<glyph unicode="9" horiz-adv-x="772" d="M80 348v10h43v-12q0 -66 14.5 -123t45 -100t80.5 -67.5t122 -24.5t121 25.5t79.5 69.5t45 103.5t14.5 126.5v400q-29 -88 -97.5 -131t-172.5 -43q-80 0 -136.5 27.5t-91 76.5t-51 114.5t-16.5 139.5v141q0 76 16.5 142.5t53 116t95 78t140.5 28.5t140.5 -28.5t95 -78 t53 -116t16.5 -142.5v-727q0 -76 -16.5 -142.5t-53 -115.5t-95 -77.5t-140.5 -28.5t-139.5 27.5t-94 75.5t-54 113.5t-17.5 141.5zM125 942q0 -66 14.5 -124t45 -101t79.5 -68.5t121 -25.5t121 25.5t79.5 68.5t45 101.5t14.5 123.5v141q0 66 -14.5 124.5t-45 101.5 t-79.5 68.5t-121 25.5t-121 -25.5t-79.5 -68.5t-45 -101.5t-14.5 -124.5v-141z" />
<glyph unicode=":" horiz-adv-x="208" d="M82 0v166h45v-166h-45zM82 780v166h45v-166h-45z" />
<glyph unicode=";" horiz-adv-x="235" d="M86 -137l23 137v166h45v-164l-45 -139h-23zM109 780v166h45v-166h-45z" />
<glyph unicode="&#x3c;" horiz-adv-x="739" d="M80 698v37l577 285v-41l-530 -262l530 -262v-41z" />
<glyph unicode="=" horiz-adv-x="555" d="M80 629v35h395v-35h-395zM80 848v35h395v-35h-395z" />
<glyph unicode="&#x3e;" horiz-adv-x="739" d="M82 414v41l530 262l-530 262v41l577 -285v-37z" />
<glyph unicode="?" horiz-adv-x="745" d="M78 997v76q0 74 15.5 141.5t49 117.5t90 81t140.5 31t141 -29t91 -79t48.5 -116.5t14.5 -142.5t-23.5 -135t-57.5 -109.5t-75 -97.5t-75 -98t-57.5 -109.5t-23.5 -132.5q0 -37 11 -73h-41q-10 41 -11 75q0 78 22.5 138.5t57.5 111.5t74 98.5t74 97.5t57.5 106.5 t22.5 129.5q0 66 -11.5 124.5t-40 103.5t-77 70.5t-121.5 25.5q-72 0 -121 -27.5t-78 -73t-41 -104.5t-12 -123v-78h-43zM322 0v164h45v-164h-45z" />
<glyph unicode="@" horiz-adv-x="1409" d="M78 582q0 172 40 334.5t126 289.5t222 204t331 77q139 0 240.5 -40t167 -113.5t97 -179t31.5 -236.5q0 -59 -7 -128t-23.5 -136.5t-42 -130t-62.5 -110.5t-86 -78t-113 -30q-66 0 -95.5 43t-31.5 103q-31 -78 -87 -123t-142 -45q-66 0 -106.5 27.5t-63 71.5t-29 100.5 t-0.5 113.5l21 201q6 59 24.5 112.5t50 93t79 63.5t108.5 24q156 -4 193 -152l14 139h43l-62 -581q-2 -25 0.5 -51.5t12.5 -48t29.5 -36t50.5 -14.5q86 0 142 62.5t88 151.5t44 186.5t12 168.5q0 125 -29.5 223.5t-91 167t-155.5 105.5t-223 37q-182 0 -311.5 -72.5 t-210 -194.5t-117.5 -279t-37 -322q0 -299 142 -463t448 -164q96 0 192 25.5t174 87.5l-2 -48q-84 -57 -176 -80.5t-190 -23.5q-326 0 -477.5 176t-151.5 492zM485 497q4 -48 22.5 -87t54.5 -62.5t93 -23.5t98.5 23.5t68 61t42 87t19.5 100.5l22 199q6 49 1 94t-24.5 80 t-55.5 56.5t-91 21.5t-96 -20.5t-68.5 -55.5t-43 -81t-21.5 -97l-21 -201q-4 -47 0 -95z" />
<glyph unicode="A" horiz-adv-x="915" d="M76 0l346 1436h63l355 -1436h-45l-84 338h-510l-84 -338h-41zM209 379h493l-249 1003z" />
<glyph unicode="B" horiz-adv-x="751" d="M82 0v1434h287q156 0 216 -77t60 -220v-93q0 -121 -42 -191.5t-163 -88.5q127 -18 180.5 -100t53.5 -207v-127q0 -152 -71 -241t-232 -89h-289zM127 43h244q141 0 199.5 76t58.5 211v129q0 156 -74 219t-221 63h-207v-698zM127 782h186q74 0 128.5 10.5t90 39t52 79 t16.5 127.5v97q0 127 -48 191.5t-183 64.5h-242v-609z" />
<glyph unicode="C" horiz-adv-x="757" d="M80 352v729q0 74 16.5 140.5t52 115.5t92 78t138.5 29t139 -29t93 -78t52.5 -115.5t16.5 -140.5v-110h-45v112q0 66 -13.5 124.5t-43 101.5t-78.5 68.5t-119 25.5q-72 0 -121 -25.5t-78.5 -68.5t-43 -101.5t-13.5 -124.5v-733q0 -66 13.5 -123t43 -100t78.5 -68.5 t121 -25.5q70 0 119 25.5t78.5 68.5t43 100.5t13.5 122.5v158h45v-156q0 -74 -16.5 -140.5t-52.5 -115.5t-93 -77.5t-139 -28.5t-138.5 28.5t-92 77.5t-52 116t-16.5 140z" />
<glyph unicode="D" d="M82 0v1434h299q82 0 141.5 -28t97 -75t55 -113.5t17.5 -142.5v-719q0 -76 -17.5 -141t-55 -112.5t-96 -75t-140.5 -27.5h-301zM127 43h254q72 0 123 23.5t82.5 65.5t46 98.5t14.5 123.5v723q0 68 -14.5 125.5t-47 99t-82.5 65.5t-122 24h-254v-1348z" />
<glyph unicode="E" horiz-adv-x="706" d="M82 0v1434h547v-43h-502v-643h422v-41h-422v-664h502v-43h-547z" />
<glyph unicode="F" horiz-adv-x="681" d="M82 0v1434h526v-43h-481v-678h401v-43h-401v-670h-45z" />
<glyph unicode="G" horiz-adv-x="759" d="M80 352v729q0 74 16.5 140.5t52 115.5t92 78t138.5 29t139 -29t93 -78t52.5 -115.5t16.5 -140.5v-94h-45v96q0 66 -13.5 124.5t-43 101.5t-78.5 68.5t-119 25.5q-72 0 -121 -25.5t-78.5 -68.5t-43 -101.5t-13.5 -124.5v-733q0 -66 13.5 -123t43 -100t78.5 -68.5 t121 -25.5q70 0 119 25.5t78.5 68.5t43 100.5t13.5 122.5v326h-223v41h268v-365q0 -74 -16.5 -140.5t-52.5 -115.5t-93 -77.5t-139 -28.5t-138.5 28.5t-92 77.5t-52 116t-16.5 140z" />
<glyph unicode="H" horiz-adv-x="772" d="M82 0v1434h45v-697h518v697h45v-1434h-45v696h-518v-696h-45z" />
<glyph unicode="I" horiz-adv-x="208" d="M82 0v1434h45v-1434h-45z" />
<glyph unicode="J" horiz-adv-x="516" d="M74 0v43q23 -2 44 -1t42 3q121 10 176 81t55 222v1086h45v-1084q0 -178 -70.5 -259t-201.5 -89q-23 -2 -44 -3h-15q-15 0 -31 1z" />
<glyph unicode="K" horiz-adv-x="821" d="M82 0v1434h45v-809l532 809h50l-445 -678l481 -756h-49l-460 713l-109 -164v-549h-45z" />
<glyph unicode="L" horiz-adv-x="681" d="M82 0v1434h45v-1391h481v-43h-526z" />
<glyph unicode="M" horiz-adv-x="1007" d="M82 0v1434h70l352 -1360l352 1360h70v-1434h-45v1366l-353 -1362h-51l-354 1362v-1366h-41z" />
<glyph unicode="N" horiz-adv-x="774" d="M82 0v1434h63l504 -1342v1342h43v-1434h-55l-512 1368v-1368h-43z" />
<glyph unicode="O" d="M80 352v729q0 180 76.5 271.5t226.5 91.5q154 0 230.5 -91t76.5 -272v-729q0 -180 -76.5 -271t-230.5 -91q-150 0 -226.5 91t-76.5 271zM125 350q0 -319 258 -319q262 0 262 319v733q0 319 -262 320q-258 0 -258 -320v-733z" />
<glyph unicode="P" horiz-adv-x="737" d="M82 0v1434h283q82 0 139 -26t92 -72t50.5 -109.5t15.5 -139.5v-143q0 -172 -79 -254t-251 -82h-205v-608h-45zM127 651h205q152 0 218 68.5t66 222.5v148q0 66 -12 121t-42 95t-78 62.5t-119 22.5h-238v-740z" />
<glyph unicode="Q" horiz-adv-x="843" d="M80 352v729q0 76 16.5 141.5t53 114.5t95 78t140.5 29t140.5 -29t95 -78t54 -114.5t17.5 -141.5v-729q0 -80 -18.5 -147.5t-59.5 -116.5q23 -39 55.5 -53.5t75.5 -14.5h23v-40h-23q-53 0 -93 18t-66 61q-35 -33 -85 -51t-116 -18q-82 0 -140.5 28.5t-95 77.5t-53 114.5 t-16.5 141.5zM125 350q0 -66 14.5 -124t45 -101t79.5 -68.5t121 -25.5t122 25.5t80.5 68.5t45 101.5t14.5 123.5v733q0 66 -14.5 124.5t-45 101.5t-80.5 68.5t-122 25.5t-121 -25.5t-79.5 -68.5t-45 -101.5t-14.5 -124.5v-733z" />
<glyph unicode="R" horiz-adv-x="778" d="M82 0v1434h285q160 0 227.5 -87t67.5 -235v-129q0 -133 -54.5 -205.5t-173.5 -95.5q121 -18 174.5 -93t53.5 -194v-225q0 -41 7 -88t31 -82h-49q-23 35 -29 79t-6 91v225q0 80 -22.5 131.5t-64.5 81t-99 42t-127 12.5h-176v-662h-45zM127 705h176q74 0 132.5 11t98 41.5 t61 83t21.5 136.5v131q0 131 -56 207t-195 76h-238v-686z" />
<glyph unicode="S" horiz-adv-x="755" d="M78 346v70h43v-72q0 -66 13 -122t44 -98t79 -66.5t120 -24.5q70 0 119 24.5t79.5 66.5t44 98.5t13.5 121.5q0 90 -41 153.5t-101.5 114t-132 93.5t-132 96t-101.5 121.5t-41 167.5q0 158 69.5 255t225.5 99q82 0 138 -27.5t91 -77t51.5 -114t16.5 -138.5v-26h-45v29 q0 63 -13.5 120.5t-42 100.5t-76.5 67.5t-118 24.5q-72 0 -120 -24.5t-76.5 -67.5t-42 -99.5t-13.5 -119.5q0 -92 41 -156t101.5 -114t132 -94t132 -96t101.5 -121t41 -165q0 -74 -16.5 -139.5t-52.5 -113.5t-93 -75.5t-139 -27.5t-138.5 27.5t-92 75.5t-52 113.5 t-16.5 139.5z" />
<glyph unicode="T" horiz-adv-x="765" d="M45 1391v43h672v-43h-314v-1391h-45v1391h-313z" />
<glyph unicode="U" horiz-adv-x="751" d="M80 354v1080h45v-1082q0 -66 12.5 -123t42 -102t77.5 -70.5t120 -25.5t120 25.5t77.5 70.5t42 102.5t12.5 122.5v1082h43v-1080q0 -74 -15.5 -140.5t-50.5 -115.5t-91 -78.5t-138 -29.5t-138.5 29.5t-92 78.5t-51 116t-15.5 140z" />
<glyph unicode="V" horiz-adv-x="913" d="M76 1434h47l336 -1383l336 1383h43l-344 -1434h-68z" />
<glyph unicode="W" horiz-adv-x="1265" d="M76 1434h45l250 -1373l247 1364h56l233 -1355l242 1364h41l-254 -1434h-59l-232 1327l-246 -1327h-65z" />
<glyph unicode="X" horiz-adv-x="909" d="M76 0l350 745l-326 689h47l310 -650l309 650h45l-326 -689l349 -745h-50l-331 705l-330 -705h-47z" />
<glyph unicode="Y" horiz-adv-x="864" d="M74 1434h45l313 -793l313 793h48l-340 -854v-580h-45v580z" />
<glyph unicode="Z" horiz-adv-x="808" d="M78 0v43l602 1348h-574v43h623v-45l-604 -1346h594v-43h-641z" />
<glyph unicode="[" horiz-adv-x="460" d="M84 0v1436h301v-41h-256v-1354h256v-41h-301z" />
<glyph unicode="\" horiz-adv-x="753" d="M74 1434h41l565 -1434h-41z" />
<glyph unicode="]" horiz-adv-x="460" d="M78 0v41h256v1354h-256v41h301v-1436h-301z" />
<glyph unicode="^" horiz-adv-x="847" d="M78 801l325 633h41l326 -633h-43l-303 588l-303 -588h-43z" />
<glyph unicode="_" horiz-adv-x="1060" d="M72 -20h899v-37h-899v37z" />
<glyph unicode="`" horiz-adv-x="362" d="M82 1737h53l150 -183h-43z" />
<glyph unicode="a" horiz-adv-x="915" d="M76 0l346 1436h63l355 -1436h-45l-84 338h-510l-84 -338h-41zM209 379h493l-249 1003z" />
<glyph unicode="b" horiz-adv-x="751" d="M82 0v1434h287q156 0 216 -77t60 -220v-93q0 -121 -42 -191.5t-163 -88.5q127 -18 180.5 -100t53.5 -207v-127q0 -152 -71 -241t-232 -89h-289zM127 43h244q141 0 199.5 76t58.5 211v129q0 156 -74 219t-221 63h-207v-698zM127 782h186q74 0 128.5 10.5t90 39t52 79 t16.5 127.5v97q0 127 -48 191.5t-183 64.5h-242v-609z" />
<glyph unicode="c" horiz-adv-x="757" d="M80 352v729q0 74 16.5 140.5t52 115.5t92 78t138.5 29t139 -29t93 -78t52.5 -115.5t16.5 -140.5v-110h-45v112q0 66 -13.5 124.5t-43 101.5t-78.5 68.5t-119 25.5q-72 0 -121 -25.5t-78.5 -68.5t-43 -101.5t-13.5 -124.5v-733q0 -66 13.5 -123t43 -100t78.5 -68.5 t121 -25.5q70 0 119 25.5t78.5 68.5t43 100.5t13.5 122.5v158h45v-156q0 -74 -16.5 -140.5t-52.5 -115.5t-93 -77.5t-139 -28.5t-138.5 28.5t-92 77.5t-52 116t-16.5 140z" />
<glyph unicode="d" d="M82 0v1434h299q82 0 141.5 -28t97 -75t55 -113.5t17.5 -142.5v-719q0 -76 -17.5 -141t-55 -112.5t-96 -75t-140.5 -27.5h-301zM127 43h254q72 0 123 23.5t82.5 65.5t46 98.5t14.5 123.5v723q0 68 -14.5 125.5t-47 99t-82.5 65.5t-122 24h-254v-1348z" />
<glyph unicode="e" horiz-adv-x="706" d="M82 0v1434h547v-43h-502v-643h422v-41h-422v-664h502v-43h-547z" />
<glyph unicode="f" horiz-adv-x="681" d="M82 0v1434h526v-43h-481v-678h401v-43h-401v-670h-45z" />
<glyph unicode="g" horiz-adv-x="759" d="M80 352v729q0 74 16.5 140.5t52 115.5t92 78t138.5 29t139 -29t93 -78t52.5 -115.5t16.5 -140.5v-94h-45v96q0 66 -13.5 124.5t-43 101.5t-78.5 68.5t-119 25.5q-72 0 -121 -25.5t-78.5 -68.5t-43 -101.5t-13.5 -124.5v-733q0 -66 13.5 -123t43 -100t78.5 -68.5 t121 -25.5q70 0 119 25.5t78.5 68.5t43 100.5t13.5 122.5v326h-223v41h268v-365q0 -74 -16.5 -140.5t-52.5 -115.5t-93 -77.5t-139 -28.5t-138.5 28.5t-92 77.5t-52 116t-16.5 140z" />
<glyph unicode="h" horiz-adv-x="772" d="M82 0v1434h45v-697h518v697h45v-1434h-45v696h-518v-696h-45z" />
<glyph unicode="i" horiz-adv-x="208" d="M82 0v1434h45v-1434h-45z" />
<glyph unicode="j" horiz-adv-x="516" d="M74 0v43q23 -2 44 -1t42 3q121 10 176 81t55 222v1086h45v-1084q0 -178 -70.5 -259t-201.5 -89q-23 -2 -44 -3h-15q-15 0 -31 1z" />
<glyph unicode="k" horiz-adv-x="821" d="M82 0v1434h45v-809l532 809h50l-445 -678l481 -756h-49l-460 713l-109 -164v-549h-45z" />
<glyph unicode="l" horiz-adv-x="681" d="M82 0v1434h45v-1391h481v-43h-526z" />
<glyph unicode="m" horiz-adv-x="1007" d="M82 0v1434h70l352 -1360l352 1360h70v-1434h-45v1366l-353 -1362h-51l-354 1362v-1366h-41z" />
<glyph unicode="n" horiz-adv-x="774" d="M82 0v1434h63l504 -1342v1342h43v-1434h-55l-512 1368v-1368h-43z" />
<glyph unicode="o" d="M80 352v729q0 76 16.5 141.5t53 114.5t94 78t139.5 29t140.5 -29t95 -78t54 -114.5t17.5 -141.5v-729q0 -76 -17.5 -141.5t-54 -114.5t-95 -77.5t-140.5 -28.5t-139.5 28.5t-94 77.5t-53 114.5t-16.5 141.5zM125 350q0 -66 13.5 -124t44 -101t79.5 -68.5t121 -25.5 t122 25.5t80.5 68.5t45 101.5t14.5 123.5v733q0 66 -14.5 124.5t-45 101.5t-80.5 68.5t-122 25.5t-121 -25.5t-79.5 -68.5t-44 -101.5t-13.5 -124.5v-733z" />
<glyph unicode="p" horiz-adv-x="735" d="M82 0v1434h283q82 0 139 -26t92 -72t50.5 -109.5t15.5 -139.5v-143q0 -172 -79 -254t-251 -82h-205v-608h-45zM127 651h205q152 0 218 68.5t66 222.5v148q0 66 -12 121t-42 95t-78 62.5t-119 22.5h-238v-740z" />
<glyph unicode="q" horiz-adv-x="790" d="M80 352v729q0 76 16.5 141.5t53 114.5t95 78t140.5 29t140.5 -29t95 -78t54 -114.5t17.5 -141.5v-729q0 -80 -18.5 -147.5t-59.5 -116.5q23 -39 55.5 -53.5t75.5 -14.5h23v-40h-23q-53 0 -93 18t-66 61q-35 -33 -85 -51t-116 -18q-82 0 -140.5 28.5t-95 77.5t-53 114.5 t-16.5 141.5zM125 350q0 -66 14.5 -124t45 -101t79.5 -68.5t121 -25.5t122 25.5t80.5 68.5t45 101.5t14.5 123.5v733q0 66 -14.5 124.5t-45 101.5t-80.5 68.5t-122 25.5t-121 -25.5t-79.5 -68.5t-45 -101.5t-14.5 -124.5v-733z" />
<glyph unicode="r" horiz-adv-x="778" d="M82 0v1434h285q160 0 227.5 -87t67.5 -235v-129q0 -133 -54.5 -205.5t-173.5 -95.5q121 -18 174.5 -93t53.5 -194v-225q0 -41 7 -88t31 -82h-49q-23 35 -29 79t-6 91v225q0 80 -22.5 131.5t-64.5 81t-99 42t-127 12.5h-176v-662h-45zM127 705h176q74 0 132.5 11t98 41.5 t61 83t21.5 136.5v131q0 131 -56 207t-195 76h-238v-686z" />
<glyph unicode="s" horiz-adv-x="755" d="M78 346v70h43v-72q0 -66 13 -122t44 -98t79 -66.5t120 -24.5q70 0 119 24.5t79.5 66.5t44 98.5t13.5 121.5q0 90 -41 153.5t-101.5 114t-132 93.5t-132 96t-101.5 121.5t-41 167.5q0 158 69.5 255t225.5 99q82 0 138 -27.5t91 -77t51.5 -114t16.5 -138.5v-26h-45v29 q0 63 -13.5 120.5t-42 100.5t-76.5 67.5t-118 24.5q-72 0 -120 -24.5t-76.5 -67.5t-42 -99.5t-13.5 -119.5q0 -92 41 -156t101.5 -114t132 -94t132 -96t101.5 -121t41 -165q0 -74 -16.5 -139.5t-52.5 -113.5t-93 -75.5t-139 -27.5t-138.5 27.5t-92 75.5t-52 113.5 t-16.5 139.5z" />
<glyph unicode="t" horiz-adv-x="751" d="M39 1391v43h670v-43h-314v-1391h-45v1391h-311z" />
<glyph unicode="u" horiz-adv-x="751" d="M80 354v1080h45v-1082q0 -66 12.5 -123t42 -102t77.5 -70.5t120 -25.5t120 25.5t77.5 70.5t42 102.5t12.5 122.5v1082h43v-1080q0 -74 -15.5 -140.5t-50.5 -115.5t-91 -78.5t-138 -29.5t-138.5 29.5t-92 78.5t-51 116t-15.5 140z" />
<glyph unicode="v" horiz-adv-x="913" d="M76 1434h47l336 -1383l336 1383h43l-344 -1434h-68z" />
<glyph unicode="w" horiz-adv-x="1265" d="M76 1434h45l250 -1373l247 1364h56l233 -1355l242 1364h41l-254 -1434h-59l-232 1327l-246 -1327h-65z" />
<glyph unicode="x" horiz-adv-x="909" d="M76 0l350 745l-326 689h47l310 -650l309 650h45l-326 -689l349 -745h-50l-331 705l-330 -705h-47z" />
<glyph unicode="y" horiz-adv-x="864" d="M74 1434h45l313 -793l313 793h48l-340 -854v-580h-45v580z" />
<glyph unicode="z" horiz-adv-x="808" d="M78 0v43l602 1348h-574v43h623v-45l-604 -1346h594v-43h-641z" />
<glyph unicode="{" horiz-adv-x="524" d="M76 692v49q45 8 71.5 25.5t40 42.5t17.5 58.5t6 76.5l14 285q2 43 10.5 80t26 65.5t48 45t77.5 16.5h62v-41h-52q-41 0 -65.5 -14.5t-37.5 -38t-18.5 -56.5t-7.5 -69l-14 -279q-2 -39 -6 -74t-18.5 -63.5t-40 -50t-68.5 -33.5q43 -12 68.5 -33.5t40 -49.5t18.5 -63.5 t6 -74.5l14 -277q2 -37 7.5 -69.5t18.5 -57t37.5 -38t65.5 -13.5h52v-41h-62q-47 0 -77.5 16.5t-48 44t-26 65.5t-10.5 81l-14 285q-2 43 -6 75.5t-17.5 58t-40 42t-71.5 24.5z" />
<glyph unicode="|" horiz-adv-x="321" d="M141 -16v1468h41v-1468h-41z" />
<glyph unicode="}" horiz-adv-x="524" d="M76 0v41h51q41 0 65.5 13.5t38 38t18.5 57t7 69.5l14 277q2 39 6.5 74.5t18.5 63.5t39.5 49.5t68.5 33.5q-43 12 -68.5 33.5t-39.5 50t-18.5 63.5t-6.5 74l-14 279q-2 37 -7 69.5t-18.5 56t-38 38t-65.5 14.5h-51v41h61q49 0 79 -16.5t48.5 -45t25.5 -65.5t9 -80l14 -285 q2 -43 6.5 -76.5t17.5 -58.5t39.5 -42t74.5 -26v-49q-47 -8 -74 -24.5t-40 -42t-17.5 -58t-6.5 -75.5l-14 -285q-2 -43 -9 -81t-25.5 -65.5t-48.5 -44t-79 -16.5h-61z" />
<glyph unicode="~" horiz-adv-x="813" d="M74 672q35 55 77 90t101 35q47 2 89 -18.5t82 -44t79 -44t80 -18.5q45 2 74.5 34.5t54.5 73.5l28 -22q-29 -51 -65.5 -86t-89.5 -39q-45 -2 -87 17.5t-82 44t-81 45t-84 20.5q-49 0 -85 -31t-65 -78z" />
<glyph unicode="&#xa1;" horiz-adv-x="208" d="M82 0v694l6 424h33l6 -424v-694h-45zM82 1270v166h45v-166h-45z" />
<glyph unicode="&#xa2;" horiz-adv-x="757" d="M82 455v528q0 72 14.5 135.5t47 112.5t86 78.5t128.5 33.5v95h41v-95q76 -4 129.5 -31.5t86 -73.5t48 -108.5t15.5 -134.5v-51h-43v53q0 66 -13.5 121.5t-43 96t-78.5 64.5t-121 24t-120 -26t-76.5 -69t-42 -101t-13.5 -122v-532q0 -63 13.5 -121t42 -102t76.5 -69.5 t120 -25.5t121 24.5t78.5 66.5t43 99.5t13.5 123.5v92h43v-90q0 -72 -15.5 -135.5t-48 -111.5t-86 -78t-129.5 -32v-98h-41v98q-76 2 -129 33t-85.5 80t-47 112.5t-14.5 135.5z" />
<glyph unicode="&#xa3;" horiz-adv-x="784" d="M80 0v41q43 45 85 99.5t72.5 113.5t45 124.5t0.5 135.5h-179v39h172q-20 72 -49.5 128t-56.5 113.5t-46.5 124t-19.5 158.5q0 76 15.5 142.5t50.5 116.5t91 79t140 29q82 0 138.5 -31t90.5 -82t48 -118.5t14 -141.5v-65h-43v67q0 63 -11 122.5t-40 106t-77 74t-120 27.5 q-74 0 -122 -25.5t-76.5 -70.5t-40.5 -103.5t-12 -124.5q0 -92 19 -158.5t46 -125t56.5 -114.5t47.5 -128h322v-39h-313q8 -47 5 -96t-24.5 -106.5t-62.5 -123t-109 -145.5h565v-43h-622z" />
<glyph unicode="&#xa4;" horiz-adv-x="679" d="M80 481l90 88q-53 66 -53 148q0 43 14 80t39 65l-90 90l22 23l93 -90q61 55 143 55q86 0 147 -55l90 90l25 -23l-92 -90q55 -61 55 -145t-55 -146l92 -90l-25 -22l-90 88q-29 -25 -66.5 -39t-80.5 -14q-41 0 -78 14t-65 39l-93 -88zM150 717q0 -39 15 -74t40.5 -60.5 t59.5 -40t73 -14.5t73.5 14.5t61.5 40t41 60.5t14 74t-14 73.5t-41 60.5t-61.5 40t-73.5 14t-73 -14t-59.5 -40t-40.5 -60.5t-15 -73.5z" />
<glyph unicode="&#xa5;" horiz-adv-x="909" d="M74 1434h49l332 -818l336 818h43l-355 -871h234v-31h-236v-170h236v-30h-236v-332h-45v332h-235v30h235v170h-235v31h231z" />
<glyph unicode="&#xa6;" horiz-adv-x="323" d="M141 -16v612h43v-612h-43zM141 838v612h43v-612h-43z" />
<glyph unicode="&#xa7;" horiz-adv-x="759" d="M82 123v55h43v-51q0 -55 21.5 -96t57.5 -69t82 -41t97 -13q43 0 87 12t81 36t60.5 59.5t25.5 84.5q2 72 -39 118t-102.5 80t-133 62.5t-133 66.5t-102.5 93t-41 142q0 53 20.5 97t54.5 77.5t79 58.5t92 37q-49 23 -94 47.5t-80 56t-55.5 72.5t-18.5 96q2 61 27.5 106.5 t67.5 75t95.5 44t112.5 14.5q57 0 109.5 -18.5t91.5 -51.5t61.5 -80t22.5 -106v-25h-43v21q0 51 -19.5 92t-52.5 69.5t-77 44t-93 15.5q-47 0 -93 -11.5t-82 -36t-58.5 -63.5t-24.5 -92q-2 -70 38 -114t101.5 -77.5t133 -63t133 -68.5t102.5 -94.5t41 -141.5 q0 -53 -17.5 -96t-47 -78t-69.5 -60.5t-85 -43.5q45 -20 85 -44t70.5 -54.5t49 -71.5t16.5 -95q-2 -57 -28.5 -100t-67.5 -72.5t-94.5 -45t-106.5 -15.5q-61 0 -115.5 16.5t-95.5 48t-65.5 79.5t-24.5 112zM129 662q0 -59 26.5 -102.5t68.5 -75t92.5 -55t97.5 -44.5 q43 14 83 36.5t70.5 54.5t49 73t18.5 92q0 55 -21.5 95t-57.5 72t-81 55t-92 46q-47 -8 -92 -27.5t-81 -51t-58.5 -74.5t-22.5 -94z" />
<glyph unicode="&#xa8;" horiz-adv-x="342" d="M111 1532v166h41v-166h-41zM190 1532v166h43v-166h-43z" />
<glyph unicode="&#xa9;" horiz-adv-x="1540" d="M78 717q0 152 51 281.5t143.5 225t219 149.5t278.5 54t279 -54t219 -149.5t143 -225.5t51 -281q0 -152 -51 -282t-143 -225t-219 -149.5t-279 -54.5t-278.5 54.5t-219 149.5t-143.5 225t-51 282zM113 717q0 -143 48 -267t136 -215.5t208 -143.5t265 -52q143 0 264 52 t209 143.5t136 215t48 267.5q0 143 -48 266t-136 214t-209 143.5t-264 52.5q-145 0 -265 -52.5t-208 -143.5t-136 -214t-48 -266zM551 520v393q0 51 11 97.5t37 81t66 54t97 19.5q55 0 95 -19.5t64.5 -54t36 -80.5t11.5 -98v-39h-35v41q0 88 -38 151.5t-134 63.5t-135 -63 t-39 -152v-397q0 -88 39 -152.5t135 -64.5q49 0 82 17.5t52 47t28.5 69.5t9.5 83v60h35v-58q0 -53 -11.5 -99t-36 -80t-64.5 -54.5t-95 -20.5q-57 0 -97 20.5t-66 54.5t-37 80t-11 99z" />
<glyph unicode="&#xaa;" horiz-adv-x="555" d="M80 872v7q0 74 33.5 118.5t87 69.5t116 34t121.5 9v115q0 39 -6 72.5t-21.5 59t-42 40t-69.5 14.5q-88 0 -122 -53t-34 -135v-19h-32v19q0 98 42 159.5t146 61.5q51 0 85 -17.5t53.5 -47t27.5 -70.5t8 -86v-533h-31l-2 137q-23 -66 -67.5 -106.5t-116.5 -40.5 q-90 0 -133 52t-43 140zM84 500v35h389v-35h-389zM115 874q0 -74 35.5 -117.5t111.5 -43.5q43 0 74 17.5t52.5 47t33.5 66.5t16 74v161q-53 0 -109.5 -8t-104.5 -28.5t-78.5 -59.5t-30.5 -100v-9z" />
<glyph unicode="&#xab;" horiz-adv-x="530" d="M76 719l137 491h41l-135 -491l135 -494h-41zM276 719l136 491h43l-136 -491l136 -494h-43z" />
<glyph unicode="&#xac;" horiz-adv-x="765" d="M78 700v35h610v-309h-37v274h-573z" />
<glyph unicode="&#xad;" horiz-adv-x="524" d="M80 696v41h364v-41h-364z" />
<glyph unicode="&#xae;" horiz-adv-x="1540" d="M78 717q0 152 51 281.5t143.5 225t219 149.5t278.5 54t279 -54t219 -149.5t143 -225.5t51 -281q0 -152 -51 -282t-143 -225t-219 -149.5t-279 -54.5t-278.5 54.5t-219 149.5t-143.5 225t-51 282zM113 717q0 -143 48 -267t136 -215.5t208 -143.5t265 -52q143 0 264 52 t209 143.5t136 215t48 267.5q0 143 -48 266t-136 214t-209 143.5t-264 52.5q-145 0 -265 -52.5t-208 -143.5t-136 -214t-48 -266zM578 279v876h198q113 0 161 -61.5t48 -165.5v-29q0 -78 -30.5 -133t-108.5 -76q76 -20 108.5 -70.5t32.5 -127.5v-95q0 -29 4 -62.5t23 -55.5 h-41q-14 27 -18.5 56.5t-4.5 61.5v95q0 55 -16 90.5t-46 56t-70 28t-89 7.5h-115v-395h-36zM614 709h138q98 0 147 41t49 145v31q0 92 -38 143t-134 51h-162v-411z" />
<glyph unicode="&#xaf;" horiz-adv-x="520" d="M74 1534v35h370v-35h-370z" />
<glyph unicode="&#xb0;" horiz-adv-x="415" d="M76 1321q0 55 39 92t94 37q53 0 92 -37t39 -92t-39 -93t-92 -38q-55 0 -94 38t-39 93zM106 1321q0 -45 30 -72.5t73 -27.5q41 0 71.5 27.5t30.5 72.5q0 43 -30.5 70.5t-71.5 27.5q-43 0 -73 -27.5t-30 -70.5z" />
<glyph unicode="&#xb1;" horiz-adv-x="788" d="M80 393v39h297v270h-297v39h297v295h37v-295h295v-39h-295v-270h295v-39h-629z" />
<glyph unicode="&#xb2;" horiz-adv-x="548" d="M82 719v22q0 84 25.5 149.5t65.5 119t85 98.5t85 89t65.5 93t25.5 111q0 41 -8 79t-26.5 65.5t-49.5 44t-76 16.5t-75.5 -16.5t-49 -45t-25.5 -66.5t-7 -79v-49h-35v49q0 49 10 92t32.5 75.5t60.5 52t91 19.5t90 -18t60 -51t33 -75t10 -91q0 -63 -25.5 -114.5 t-63.5 -97.5t-83 -90t-84 -95.5t-66.5 -110.5t-29.5 -137v-6h344v-33h-379z" />
<glyph unicode="&#xb3;" horiz-adv-x="548" d="M82 942v43h33v-45q0 -41 8 -77t26.5 -63.5t49 -43t75.5 -15.5q88 0 123 58.5t35 142.5v70q0 70 -38 117t-109 47h-66v32h66q33 0 60.5 14.5t47 38t29.5 54.5t10 63v27q0 82 -35 141.5t-123 59.5q-45 0 -75.5 -16.5t-49 -43t-26.5 -63.5t-8 -76v-29h-33v27q0 49 10 91 t32.5 74t59.5 50t90 18q51 0 88 -18t60.5 -50t34 -74t10.5 -91v-23q0 -63 -30.5 -114t-90.5 -74q63 -20 92 -69.5t29 -112.5v-70q0 -49 -10.5 -91t-34 -74t-60 -50t-88.5 -18q-53 0 -90 18t-59.5 50t-32.5 74t-10 91z" />
<glyph unicode="&#xb4;" horiz-adv-x="362" d="M78 1554l149 183h52l-158 -183h-43z" />
<glyph unicode="&#xb5;" horiz-adv-x="819" d="M111 -186v1210h45v-666q0 -66 13 -124t43 -101t77 -68.5t117 -25.5t117.5 25.5t77.5 68.5t43 101.5t13 123.5v666h45v-1024h-43l3 217q-25 -102 -90.5 -160.5t-170.5 -58.5q-104 0 -165.5 56.5t-81.5 144.5l2 -385h-45z" />
<glyph unicode="&#xb6;" horiz-adv-x="811" d="M55 946v154q0 74 11.5 135t40 105t81 69t134.5 25h376v-1559h-36v1522h-312v-1522h-37v735q-147 8 -202.5 92t-55.5 244z" />
<glyph unicode="&#xb7;" horiz-adv-x="208" d="M82 662v165h45v-165h-45z" />
<glyph unicode="&#xb8;" horiz-adv-x="503" d="M78 -180h37v-6q0 -27 13 -45.5t33.5 -29.5t45 -17.5t47.5 -6.5q20 0 45 5.5t44 16.5t32.5 29.5t13.5 45.5q0 29 -12 46t-31.5 26.5t-43 12.5t-48.5 3h-10v104h28v-84q31 0 58.5 -5t49 -17.5t34 -33t12.5 -52.5q0 -35 -15.5 -57.5t-40 -37t-55 -20.5t-61.5 -6t-61.5 6 t-56 20.5t-42 38t-16.5 56.5v8z" />
<glyph unicode="&#xb9;" horiz-adv-x="346" d="M78 1501q59 4 96 39t53 88h35v-909h-35v848q-51 -84 -147 -97z" />
<glyph unicode="&#xba;" horiz-adv-x="555" d="M80 905v305q0 49 11 91t35 74t62 50.5t91 18.5t90 -18.5t60.5 -50.5t34.5 -73.5t11 -91.5v-305q0 -49 -11 -91t-34.5 -73.5t-60.5 -50t-90 -18.5t-91 18.5t-62 50t-35 73.5t-11 91zM84 502v35h391v-35h-391zM115 903q0 -82 36.5 -140t127.5 -58q88 0 124.5 58t36.5 140 v309q0 82 -36.5 140.5t-124.5 58.5q-90 0 -127 -58.5t-37 -140.5v-309z" />
<glyph unicode="&#xbb;" horiz-adv-x="530" d="M76 225l135 494l-135 491h43l135 -491l-135 -494h-43zM276 225l136 494l-136 491h43l136 -491l-136 -494h-43z" />
<glyph unicode="&#xbc;" horiz-adv-x="1005" d="M88 1307q59 4 96 38.5t54 88.5h34v-910h-36v848q-49 -84 -146 -96zM195 0l565 1434h33l-566 -1434h-32zM492 209v33l317 667h43v-667h76v-33h-76v-209h-35v209h-325zM528 242h289v604z" />
<glyph unicode="&#xbd;" horiz-adv-x="1130" d="M88 1307q59 4 96 38.5t54 88.5h34v-910h-36v848q-49 -84 -146 -96zM186 0l566 1434h34l-565 -1434h-35zM666 0v23q0 84 25.5 149.5t64.5 118.5t85 98t85 89t64.5 93.5t25.5 110.5q0 41 -7.5 79t-25.5 65.5t-49 44t-76 16.5t-75.5 -16.5t-49 -45t-27 -66.5t-8.5 -79v-49 h-32v49q0 49 10 92t32.5 76t59.5 52.5t90 19.5q55 0 92 -18.5t59.5 -51.5t32 -75t9.5 -91q0 -63 -26 -114.5t-63.5 -97.5t-82.5 -90t-84 -94t-66 -110.5t-29 -138.5v-6h342v-33h-376z" />
<glyph unicode="&#xbe;" horiz-adv-x="1144" d="M82 748v43h33v-46q0 -41 8 -76.5t26.5 -63t49 -43t75.5 -15.5q88 0 123 58.5t35 142.5v69q0 70 -38 117t-109 47h-66v33h66q33 0 60.5 14t47 38t29.5 54.5t10 63.5v26q0 82 -35 141.5t-123 59.5q-45 0 -75.5 -16.5t-49 -43t-26.5 -63.5t-8 -76v-28h-33v26q0 49 10 91 t32.5 74t59.5 50.5t90 18.5q51 0 88 -18.5t60.5 -50.5t34 -73.5t10.5 -91.5v-22q0 -63 -30.5 -114.5t-90.5 -74.5q63 -20 92 -69t29 -113v-69q0 -49 -10.5 -91.5t-34 -74t-60 -50t-88.5 -18.5q-53 0 -90 18.5t-59.5 50t-32.5 73.5t-10 92zM338 0l565 1434h33l-565 -1434h-33 zM633 209v33l317 667h41v-667h78v-33h-78v-209h-35v209h-323zM670 242h286v604z" />
<glyph unicode="&#xbf;" horiz-adv-x="745" d="M76 356q0 76 23.5 135.5t57 109.5t74.5 97t75 98.5t57.5 110t23.5 131.5q0 37 -10 74h43q10 -41 10 -76q0 -78 -23.5 -138t-57.5 -112.5t-73.5 -98.5t-74.5 -96t-57.5 -107.5t-22.5 -129.5q0 -66 11 -124t41 -103t78 -70.5t122 -25.5q72 0 120 27.5t77.5 72.5t42 104.5 t12.5 122.5v78h43v-76q0 -74 -15.5 -141t-50.5 -117.5t-91 -81t-138 -30.5q-84 0 -141.5 28.5t-92.5 78.5t-49 117t-14 142zM379 1270v164h43v-164h-43z" />
<glyph unicode="&#xc0;" horiz-adv-x="915" d="M76 0l346 1436h63l355 -1436h-45l-84 338h-510l-84 -338h-41zM209 379h493l-249 1003zM317 1692h54l147 -183h-41z" />
<glyph unicode="&#xc1;" horiz-adv-x="915" d="M76 0l346 1436h63l355 -1436h-45l-84 338h-510l-84 -338h-41zM209 379h493l-249 1003zM371 1511l147 183h53l-159 -183h-41z" />
<glyph unicode="&#xc2;" horiz-adv-x="915" d="M76 0l346 1436h63l355 -1436h-45l-84 338h-510l-84 -338h-41zM209 379h493l-249 1003zM266 1509l168 168h37l170 -168h-51l-137 136l-138 -136h-49z" />
<glyph unicode="&#xc3;" horiz-adv-x="915" d="M76 0l346 1436h63l355 -1436h-45l-84 338h-510l-84 -338h-41zM209 379h493l-249 1003zM250 1567q18 35 44.5 57.5t65.5 24.5q29 0 53.5 -12.5t48 -27t46 -26.5t45.5 -10q27 2 44 21.5t28 41.5l30 -18q-16 -33 -39.5 -56.5t-58.5 -25.5q-27 -2 -51.5 10.5t-48 26.5 t-47 26.5t-48.5 12.5q-29 0 -49 -18.5t-34 -45.5z" />
<glyph unicode="&#xc4;" horiz-adv-x="915" d="M76 0l346 1436h63l355 -1436h-45l-84 338h-510l-84 -338h-41zM209 379h493l-249 1003zM354 1509v164h41v-164h-41zM510 1509v164h43v-164h-43z" />
<glyph unicode="&#xc5;" horiz-adv-x="915" d="M76 0l346 1436h63l355 -1436h-45l-84 338h-510l-84 -338h-41zM209 379h493l-249 1003zM324 1645q0 53 38 87.5t91 34.5t90 -34.5t37 -87.5q0 -55 -37 -91t-90 -36t-91 35.5t-38 91.5zM354 1645q0 -43 29 -70t70 -27q39 0 67.5 27t28.5 70q0 41 -28.5 66.5t-67.5 25.5 q-41 0 -70 -25.5t-29 -66.5z" />
<glyph unicode="&#xc6;" horiz-adv-x="1212" d="M74 0l557 1434h504v-43h-430v-643h360v-41h-360v-664h430v-43h-476v344h-407l-135 -344h-43zM266 387h393v993z" />
<glyph unicode="&#xc7;" horiz-adv-x="757" d="M80 352v729q0 74 16.5 140.5t52 115.5t92 78t138.5 29t139 -29t93 -78t52.5 -115.5t16.5 -140.5v-110h-45v112q0 66 -13.5 124.5t-43 101.5t-78.5 68.5t-119 25.5q-72 0 -121 -25.5t-78.5 -68.5t-43 -101.5t-13.5 -124.5v-733q0 -66 13.5 -123t43 -100t78.5 -68.5 t121 -25.5q70 0 119 25.5t78.5 68.5t43 100.5t13.5 122.5v158h45v-156q0 -72 -15.5 -137t-50 -114.5t-89 -79t-132.5 -31.5v-70q31 0 58.5 -5t49 -17.5t34 -33t12.5 -52.5q0 -35 -15.5 -57.5t-40 -37t-55 -20.5t-61.5 -6t-61.5 6t-55.5 20.5t-41 38t-16 56.5v8h35v-6 q0 -27 13 -45.5t33.5 -29.5t45 -17.5t47.5 -6.5q20 0 44.5 5.5t44 16.5t33 29.5t13.5 45.5q0 29 -12.5 46t-32 26.5t-43 12.5t-47.5 3h-10v90q-78 2 -132.5 32.5t-88 80t-49 114t-15.5 135.5z" />
<glyph unicode="&#xc8;" horiz-adv-x="706" d="M82 0v1434h547v-43h-502v-643h422v-41h-422v-664h502v-43h-547zM238 1720h53l149 -182h-43z" />
<glyph unicode="&#xc9;" horiz-adv-x="706" d="M82 0v1434h547v-43h-502v-643h422v-41h-422v-664h502v-43h-547zM297 1518l147 182h54l-160 -182h-41z" />
<glyph unicode="&#xca;" horiz-adv-x="706" d="M82 0v1434h547v-43h-502v-643h422v-41h-422v-664h502v-43h-547zM168 1522l168 168h37l170 -168h-51l-138 137l-139 -137h-47z" />
<glyph unicode="&#xcb;" horiz-adv-x="706" d="M82 0v1434h547v-43h-502v-643h422v-41h-422v-664h502v-43h-547zM256 1518v165h41v-165h-41zM412 1518v165h41v-165h-41z" />
<glyph unicode="&#xcc;" horiz-adv-x="208" d="M-49 1700h53l148 -182h-43zM82 0v1434h45v-1434h-45z" />
<glyph unicode="&#xcd;" horiz-adv-x="208" d="M41 1520l149 182h52l-158 -182h-43zM82 0v1434h45v-1434h-45z" />
<glyph unicode="&#xce;" horiz-adv-x="208" d="M-82 1518l168 168h37l168 -168h-49l-138 137l-139 -137h-47zM82 0v1434h45v-1434h-45z" />
<glyph unicode="&#xcf;" horiz-adv-x="208" d="M6 1520v163h41v-163h-41zM82 0v1434h45v-1434h-45zM162 1520v163h41v-163h-41z" />
<glyph unicode="&#xd0;" d="M-20 698v39h102v697h299q82 0 141.5 -28t97 -75t55 -113.5t17.5 -142.5v-719q0 -76 -17.5 -141t-55 -112.5t-96 -75t-140.5 -27.5h-301v698h-102zM127 43h254q72 0 123 23.5t82.5 65.5t46 98.5t14.5 123.5v723q0 68 -14.5 125.5t-47 99t-82.5 65.5t-122 24h-254v-654h199 v-39h-199v-655z" />
<glyph unicode="&#xd1;" horiz-adv-x="774" d="M82 0v1434h63l504 -1342v1342h43v-1434h-55l-512 1368v-1368h-43zM186 1589q18 35 46 57.5t65 24.5q29 0 54.5 -11t49 -25.5t46 -27t45.5 -10.5q25 0 42 19.5t29 42.5l29 -19q-16 -33 -40 -55t-58 -24q-27 -2 -51.5 10t-47 26.5t-46 25.5t-48.5 11q-29 0 -49.5 -18.5 t-36.5 -44.5z" />
<glyph unicode="&#xd2;" d="M80 352v729q0 76 16.5 141.5t53 114.5t94 78t139.5 29t140.5 -29t95 -78t54 -114.5t17.5 -141.5v-729q0 -76 -17.5 -141.5t-54 -114.5t-95 -77.5t-140.5 -28.5t-139.5 28.5t-94 77.5t-53 114.5t-16.5 141.5zM125 350q0 -66 13.5 -124t44 -101t79.5 -68.5t121 -25.5 t122 25.5t80.5 68.5t45 101.5t14.5 123.5v733q0 66 -14.5 124.5t-45 101.5t-80.5 68.5t-122 25.5t-121 -25.5t-79.5 -68.5t-44 -101.5t-13.5 -124.5v-733zM246 1718h53l147 -182h-43z" />
<glyph unicode="&#xd3;" d="M80 352v729q0 76 16.5 141.5t53 114.5t94 78t139.5 29t140.5 -29t95 -78t54 -114.5t17.5 -141.5v-729q0 -76 -17.5 -141.5t-54 -114.5t-95 -77.5t-140.5 -28.5t-139.5 28.5t-94 77.5t-53 114.5t-16.5 141.5zM125 350q0 -66 13.5 -124t44 -101t79.5 -68.5t121 -25.5 t122 25.5t80.5 68.5t45 101.5t14.5 123.5v733q0 66 -14.5 124.5t-45 101.5t-80.5 68.5t-122 25.5t-121 -25.5t-79.5 -68.5t-44 -101.5t-13.5 -124.5v-733zM322 1536l147 182h51l-158 -182h-40z" />
<glyph unicode="&#xd4;" d="M80 352v729q0 76 16.5 141.5t53 114.5t94 78t139.5 29t140.5 -29t95 -78t54 -114.5t17.5 -141.5v-729q0 -76 -17.5 -141.5t-54 -114.5t-95 -77.5t-140.5 -28.5t-139.5 28.5t-94 77.5t-53 114.5t-16.5 141.5zM125 350q0 -66 13.5 -124t44 -101t79.5 -68.5t121 -25.5 t122 25.5t80.5 68.5t45 101.5t14.5 123.5v733q0 66 -14.5 124.5t-45 101.5t-80.5 68.5t-122 25.5t-121 -25.5t-79.5 -68.5t-44 -101.5t-13.5 -124.5v-733zM197 1532l168 168h36l170 -168h-51l-137 137l-137 -137h-49z" />
<glyph unicode="&#xd5;" d="M80 352v729q0 76 16.5 141.5t53 114.5t94 78t139.5 29t140.5 -29t95 -78t54 -114.5t17.5 -141.5v-729q0 -76 -17.5 -141.5t-54 -114.5t-95 -77.5t-140.5 -28.5t-139.5 28.5t-94 77.5t-53 114.5t-16.5 141.5zM125 350q0 -66 13.5 -124t44 -101t79.5 -68.5t121 -25.5 t122 25.5t80.5 68.5t45 101.5t14.5 123.5v733q0 66 -14.5 124.5t-45 101.5t-80.5 68.5t-122 25.5t-121 -25.5t-79.5 -68.5t-44 -101.5t-13.5 -124.5v-733zM193 1583q18 35 45.5 57.5t64.5 22.5q29 0 53.5 -11.5t48 -25.5t46 -26.5t45.5 -10.5q27 2 44 21.5t27 42.5l31 -19 q-16 -33 -39.5 -56.5t-58.5 -25.5q-27 -2 -51.5 10.5t-48 27t-47 26.5t-48.5 12q-29 0 -49 -18.5t-35 -44.5z" />
<glyph unicode="&#xd6;" d="M80 352v729q0 76 16.5 141.5t53 114.5t94 78t139.5 29t140.5 -29t95 -78t54 -114.5t17.5 -141.5v-729q0 -76 -17.5 -141.5t-54 -114.5t-95 -77.5t-140.5 -28.5t-139.5 28.5t-94 77.5t-53 114.5t-16.5 141.5zM125 350q0 -66 13.5 -124t44 -101t79.5 -68.5t121 -25.5 t122 25.5t80.5 68.5t45 101.5t14.5 123.5v733q0 66 -14.5 124.5t-45 101.5t-80.5 68.5t-122 25.5t-121 -25.5t-79.5 -68.5t-44 -101.5t-13.5 -124.5v-733zM285 1532v166h41v-166h-41zM440 1532v166h43v-166h-43z" />
<glyph unicode="&#xd7;" horiz-adv-x="645" d="M82 500l215 215l-215 215l24 26l218 -215l215 215l24 -26l-215 -215l215 -215l-24 -27l-215 217l-218 -217z" />
<glyph unicode="&#xd8;" d="M80 352v729q0 180 76.5 271.5t226.5 91.5q152 0 229 -92l35 90l33 -10l-43 -113q53 -90 53 -238v-729q0 -180 -76.5 -271t-230.5 -91q-150 0 -227 94l-39 -98l-33 10l47 123q-51 90 -51 233zM125 350q0 -102 29 -176l440 1129q-68 100 -211 100q-258 0 -258 -320v-733z M174 133q66 -102 209 -102q262 0 262 319v733q0 106 -31 181z" />
<glyph unicode="&#xd9;" horiz-adv-x="751" d="M80 354v1080h45v-1082q0 -66 12.5 -123t42 -102t77.5 -70.5t120 -25.5t120 25.5t77.5 70.5t42 102.5t12.5 122.5v1082h43v-1080q0 -74 -15.5 -140.5t-50.5 -115.5t-91 -78.5t-138 -29.5t-138.5 29.5t-92 78.5t-51 116t-15.5 140zM236 1702h53l147 -182h-43z" />
<glyph unicode="&#xda;" horiz-adv-x="751" d="M80 354v1080h45v-1082q0 -66 12.5 -123t42 -102t77.5 -70.5t120 -25.5t120 25.5t77.5 70.5t42 102.5t12.5 122.5v1082h43v-1080q0 -74 -15.5 -140.5t-50.5 -115.5t-91 -78.5t-138 -29.5t-138.5 29.5t-92 78.5t-51 116t-15.5 140zM330 1536l149 182h51l-157 -182h-43z" />
<glyph unicode="&#xdb;" horiz-adv-x="751" d="M80 354v1080h45v-1082q0 -66 12.5 -123t42 -102t77.5 -70.5t120 -25.5t120 25.5t77.5 70.5t42 102.5t12.5 122.5v1082h43v-1080q0 -74 -15.5 -140.5t-50.5 -115.5t-91 -78.5t-138 -29.5t-138.5 29.5t-92 78.5t-51 116t-15.5 140zM193 1532l167 168h37l170 -168h-51 l-137 137l-139 -137h-47z" />
<glyph unicode="&#xdc;" horiz-adv-x="751" d="M80 354v1080h45v-1082q0 -66 12.5 -123t42 -102t77.5 -70.5t120 -25.5t120 25.5t77.5 70.5t42 102.5t12.5 122.5v1082h43v-1080q0 -74 -15.5 -140.5t-50.5 -115.5t-91 -78.5t-138 -29.5t-138.5 29.5t-92 78.5t-51 116t-15.5 140zM276 1528v164h41v-164h-41zM432 1528v164 h43v-164h-43z" />
<glyph unicode="&#xdd;" horiz-adv-x="864" d="M74 1434h45l313 -793l313 793h48l-340 -854v-580h-45v580zM383 1518l149 182h52l-160 -182h-41z" />
<glyph unicode="&#xde;" horiz-adv-x="772" d="M82 0v1434h45v-283h238q82 0 139 -25.5t92 -71.5t50.5 -109.5t15.5 -139.5v-143q0 -172 -79 -254t-251 -82h-205v-326h-45zM127 369h205q152 0 218 68.5t66 221.5v148q0 66 -12 121t-42 95t-78 62.5t-119 22.5h-238v-739z" />
<glyph unicode="&#xdf;" horiz-adv-x="1429" d="M70 346v70h43v-72q0 -66 13 -122t43 -98t79 -66.5t121 -24.5q70 0 119 24.5t78.5 66.5t43 98.5t13.5 121.5q0 90 -41 153.5t-101.5 114t-131 93.5t-131 96t-101.5 121.5t-41 167.5q0 78 16.5 143t52 111.5t92 73t134.5 26.5q80 0 136 -27.5t92 -77t51.5 -114t15.5 -138.5 v-26h-43v29q0 63 -13.5 120.5t-42 100.5t-78 67.5t-118.5 24.5q-70 0 -118 -24.5t-77 -67.5t-42 -99.5t-13 -119.5q0 -92 41 -156t101.5 -114t131 -94t131 -96t101.5 -121t41 -165q0 -74 -16.5 -139.5t-52.5 -113.5t-92 -75.5t-138 -27.5t-138.5 27.5t-92.5 75.5t-52 113.5 t-16 139.5zM760 346v70h43v-72q0 -66 13 -122t43 -98t79 -66.5t121 -24.5q70 0 119 24.5t78.5 66.5t43 98.5t13.5 121.5q0 90 -41 153.5t-101.5 114t-131 93.5t-131 96t-101.5 121.5t-41 167.5q0 78 16.5 143t52 111.5t92 73t134.5 26.5q80 0 136 -27.5t92 -77t51.5 -114 t15.5 -138.5v-26h-43v29q0 63 -13.5 120.5t-42 100.5t-78 67.5t-118.5 24.5q-70 0 -118 -24.5t-76.5 -67.5t-42 -99.5t-13.5 -119.5q0 -92 41 -156t101.5 -114t131 -94t131 -96t101.5 -121t41 -165q0 -74 -16.5 -139.5t-52.5 -113.5t-92 -75.5t-138 -27.5t-138.5 27.5 t-92 75.5t-52 113.5t-16.5 139.5z" />
<glyph unicode="&#xe0;" horiz-adv-x="915" d="M76 0l346 1436h63l355 -1436h-45l-84 338h-510l-84 -338h-41zM209 379h493l-249 1003zM317 1692h54l147 -183h-41z" />
<glyph unicode="&#xe1;" horiz-adv-x="915" d="M76 0l346 1436h63l355 -1436h-45l-84 338h-510l-84 -338h-41zM209 379h493l-249 1003zM371 1511l147 183h53l-159 -183h-41z" />
<glyph unicode="&#xe2;" horiz-adv-x="915" d="M76 0l346 1436h63l355 -1436h-45l-84 338h-510l-84 -338h-41zM209 379h493l-249 1003zM266 1509l168 168h37l170 -168h-51l-137 136l-138 -136h-49z" />
<glyph unicode="&#xe3;" horiz-adv-x="915" d="M76 0l346 1436h63l355 -1436h-45l-84 338h-510l-84 -338h-41zM209 379h493l-249 1003zM250 1567q18 35 44.5 57.5t65.5 24.5q29 0 54.5 -12.5t49 -27t46 -26.5t45.5 -10q27 2 44 20.5t28 40.5l28 -16q-16 -33 -39.5 -56.5t-58.5 -25.5q-27 -2 -51.5 10.5t-48 26.5 t-48 26.5t-49.5 12.5q-29 0 -49 -17.5t-35 -44.5z" />
<glyph unicode="&#xe4;" horiz-adv-x="915" d="M76 0l346 1436h63l355 -1436h-45l-84 338h-510l-84 -338h-41zM209 379h493l-249 1003zM354 1509v164h41v-164h-41zM510 1509v164h43v-164h-43z" />
<glyph unicode="&#xe5;" horiz-adv-x="915" d="M76 0l346 1436h63l355 -1436h-45l-84 338h-510l-84 -338h-41zM209 379h493l-249 1003zM324 1645q0 53 38 87.5t91 34.5t90 -34.5t37 -87.5q0 -55 -37 -91t-90 -36t-91 35.5t-38 91.5zM354 1645q0 -43 29 -70t70 -27q39 0 67.5 27t28.5 70q0 41 -28.5 66.5t-67.5 25.5 q-41 0 -70 -25.5t-29 -66.5z" />
<glyph unicode="&#xe6;" horiz-adv-x="1212" d="M74 0l557 1434h504v-43h-430v-643h360v-41h-360v-664h430v-43h-476v344h-407l-135 -344h-43zM266 387h393v993z" />
<glyph unicode="&#xe7;" horiz-adv-x="757" d="M80 352v729q0 74 16.5 140.5t52 115.5t92 78t138.5 29t139 -29t93 -78t52.5 -115.5t16.5 -140.5v-110h-45v112q0 66 -13.5 124.5t-43 101.5t-78.5 68.5t-119 25.5q-72 0 -121 -25.5t-78.5 -68.5t-43 -101.5t-13.5 -124.5v-733q0 -66 13.5 -123t43 -100t78.5 -68.5 t121 -25.5q70 0 119 25.5t78.5 68.5t43 100.5t13.5 122.5v158h45v-156q0 -72 -15.5 -137t-50 -114.5t-89 -79t-132.5 -31.5v-62q59 -2 106.5 -27.5t47.5 -88.5q0 -35 -15.5 -58.5t-40 -39t-55 -21.5t-61.5 -6t-61.5 7t-55.5 22.5t-41 39t-16 56.5v8h32v-6q0 -27 13.5 -45.5 t35 -29.5t46 -16.5t47.5 -5.5q20 0 44.5 5.5t44 16.5t33 28.5t13.5 44.5q0 29 -12.5 46t-32 26.5t-43 12.5t-47.5 3h-10v90q-78 2 -132.5 32.5t-88 80t-49 114t-15.5 135.5z" />
<glyph unicode="&#xe8;" horiz-adv-x="706" d="M82 0v1434h547v-43h-502v-643h422v-41h-422v-664h502v-43h-547zM238 1720h53l149 -182h-43z" />
<glyph unicode="&#xe9;" horiz-adv-x="706" d="M82 0v1434h547v-43h-502v-643h422v-41h-422v-664h502v-43h-547zM297 1518l147 182h54l-160 -182h-41z" />
<glyph unicode="&#xea;" horiz-adv-x="706" d="M82 0v1434h547v-43h-502v-643h422v-41h-422v-664h502v-43h-547zM168 1522l168 168h37l170 -168h-51l-138 137l-139 -137h-47z" />
<glyph unicode="&#xeb;" horiz-adv-x="706" d="M82 0v1434h547v-43h-502v-643h422v-41h-422v-664h502v-43h-547zM256 1518v165h41v-165h-41zM412 1518v165h41v-165h-41z" />
<glyph unicode="&#xec;" horiz-adv-x="208" d="M-49 1700h53l148 -182h-43zM82 0v1434h45v-1434h-45z" />
<glyph unicode="&#xed;" horiz-adv-x="208" d="M41 1520l149 182h52l-158 -182h-43zM82 0v1434h45v-1434h-45z" />
<glyph unicode="&#xee;" horiz-adv-x="208" d="M-82 1518l168 168h37l168 -168h-49l-138 137l-139 -137h-47zM82 0v1434h45v-1434h-45z" />
<glyph unicode="&#xef;" horiz-adv-x="208" d="M6 1520v163h41v-163h-41zM82 0v1434h45v-1434h-45zM162 1520v163h41v-163h-41z" />
<glyph unicode="&#xf0;" d="M-10 694v39h92v701h299q82 0 141.5 -28t97 -75t55 -113.5t17.5 -142.5v-719q0 -76 -17.5 -141t-55 -112.5t-96 -75t-140.5 -27.5h-301v694h-92zM127 43h254q72 0 123 23.5t82.5 65.5t46 98.5t14.5 123.5v723q0 68 -14.5 125.5t-47 99t-82.5 65.5t-122 24h-254v-658h201 v-39h-201v-651z" />
<glyph unicode="&#xf1;" horiz-adv-x="774" d="M82 0v1434h63l504 -1342v1342h43v-1434h-55l-512 1368v-1368h-43zM186 1589q18 35 46 57.5t65 24.5q29 0 54.5 -11t49 -25.5t46 -27t45.5 -10.5q25 0 42 19.5t29 42.5l29 -19q-16 -33 -40 -55t-58 -24q-27 -2 -51.5 10t-47 26.5t-46 25.5t-48.5 11q-29 0 -49.5 -18.5 t-36.5 -44.5z" />
<glyph unicode="&#xf2;" d="M80 352v729q0 76 16.5 141.5t53 114.5t94 78t139.5 29t140.5 -29t95 -78t54 -114.5t17.5 -141.5v-729q0 -76 -17.5 -141.5t-54 -114.5t-95 -77.5t-140.5 -28.5t-139.5 28.5t-94 77.5t-53 114.5t-16.5 141.5zM125 350q0 -66 13.5 -124t44 -101t79.5 -68.5t121 -25.5 t122 25.5t80.5 68.5t45 101.5t14.5 123.5v733q0 66 -14.5 124.5t-45 101.5t-80.5 68.5t-122 25.5t-121 -25.5t-79.5 -68.5t-44 -101.5t-13.5 -124.5v-733zM246 1718h53l147 -182h-43z" />
<glyph unicode="&#xf3;" d="M80 352v729q0 76 16.5 141.5t53 114.5t94 78t139.5 29t140.5 -29t95 -78t54 -114.5t17.5 -141.5v-729q0 -76 -17.5 -141.5t-54 -114.5t-95 -77.5t-140.5 -28.5t-139.5 28.5t-94 77.5t-53 114.5t-16.5 141.5zM125 350q0 -66 13.5 -124t44 -101t79.5 -68.5t121 -25.5 t122 25.5t80.5 68.5t45 101.5t14.5 123.5v733q0 66 -14.5 124.5t-45 101.5t-80.5 68.5t-122 25.5t-121 -25.5t-79.5 -68.5t-44 -101.5t-13.5 -124.5v-733zM322 1536l147 182h51l-158 -182h-40z" />
<glyph unicode="&#xf4;" d="M80 352v729q0 76 16.5 141.5t53 114.5t94 78t139.5 29t140.5 -29t95 -78t54 -114.5t17.5 -141.5v-729q0 -76 -17.5 -141.5t-54 -114.5t-95 -77.5t-140.5 -28.5t-139.5 28.5t-94 77.5t-53 114.5t-16.5 141.5zM125 350q0 -66 13.5 -124t44 -101t79.5 -68.5t121 -25.5 t122 25.5t80.5 68.5t45 101.5t14.5 123.5v733q0 66 -14.5 124.5t-45 101.5t-80.5 68.5t-122 25.5t-121 -25.5t-79.5 -68.5t-44 -101.5t-13.5 -124.5v-733zM197 1532l168 168h36l170 -168h-51l-137 137l-137 -137h-49z" />
<glyph unicode="&#xf5;" d="M80 352v729q0 76 16.5 141.5t53 114.5t94 78t139.5 29t140.5 -29t95 -78t54 -114.5t17.5 -141.5v-729q0 -76 -17.5 -141.5t-54 -114.5t-95 -77.5t-140.5 -28.5t-139.5 28.5t-94 77.5t-53 114.5t-16.5 141.5zM125 350q0 -66 13.5 -124t44 -101t79.5 -68.5t121 -25.5 t122 25.5t80.5 68.5t45 101.5t14.5 123.5v733q0 66 -14.5 124.5t-45 101.5t-80.5 68.5t-122 25.5t-121 -25.5t-79.5 -68.5t-44 -101.5t-13.5 -124.5v-733zM193 1583q18 35 45.5 57.5t64.5 22.5q29 0 53.5 -11.5t48 -25.5t46 -26.5t45.5 -10.5q27 2 44 21.5t27 42.5l31 -19 q-16 -33 -39.5 -56.5t-58.5 -25.5q-27 -2 -51.5 10.5t-48 27t-47 26.5t-48.5 12q-29 0 -49 -18.5t-35 -44.5z" />
<glyph unicode="&#xf6;" d="M80 352v729q0 76 16.5 141.5t53 114.5t94 78t139.5 29t140.5 -29t95 -78t54 -114.5t17.5 -141.5v-729q0 -76 -17.5 -141.5t-54 -114.5t-95 -77.5t-140.5 -28.5t-139.5 28.5t-94 77.5t-53 114.5t-16.5 141.5zM125 350q0 -66 13.5 -124t44 -101t79.5 -68.5t121 -25.5 t122 25.5t80.5 68.5t45 101.5t14.5 123.5v733q0 66 -14.5 124.5t-45 101.5t-80.5 68.5t-122 25.5t-121 -25.5t-79.5 -68.5t-44 -101.5t-13.5 -124.5v-733zM285 1532v166h41v-166h-41zM440 1532v166h43v-166h-43z" />
<glyph unicode="&#xf7;" horiz-adv-x="555" d="M78 700v35h399v-35h-399zM254 455v168h43v-168h-43zM254 813v166h43v-166h-43z" />
<glyph unicode="&#xf8;" d="M80 352v729q0 180 76.5 271.5t226.5 91.5q152 0 229 -92l35 90l33 -10l-43 -113q53 -90 53 -238v-729q0 -180 -76.5 -271t-230.5 -91q-150 0 -227 94l-39 -98l-33 10l47 123q-51 90 -51 233zM125 350q0 -102 29 -176l440 1129q-68 100 -211 100q-258 0 -258 -320v-733z M174 133q66 -102 209 -102q262 0 262 319v733q0 106 -31 181z" />
<glyph unicode="&#xf9;" horiz-adv-x="751" d="M80 354v1080h45v-1082q0 -66 12.5 -123t42 -102t77.5 -70.5t120 -25.5t120 25.5t77.5 70.5t42 102.5t12.5 122.5v1082h43v-1080q0 -74 -15.5 -140.5t-50.5 -115.5t-91 -78.5t-138 -29.5t-138.5 29.5t-92 78.5t-51 116t-15.5 140zM236 1702h53l147 -182h-43z" />
<glyph unicode="&#xfa;" horiz-adv-x="751" d="M80 354v1080h45v-1082q0 -66 12.5 -123t42 -102t77.5 -70.5t120 -25.5t120 25.5t77.5 70.5t42 102.5t12.5 122.5v1082h43v-1080q0 -74 -15.5 -140.5t-50.5 -115.5t-91 -78.5t-138 -29.5t-138.5 29.5t-92 78.5t-51 116t-15.5 140zM330 1536l149 182h51l-157 -182h-43z" />
<glyph unicode="&#xfb;" horiz-adv-x="751" d="M80 354v1080h45v-1082q0 -66 12.5 -123t42 -102t77.5 -70.5t120 -25.5t120 25.5t77.5 70.5t42 102.5t12.5 122.5v1082h43v-1080q0 -74 -15.5 -140.5t-50.5 -115.5t-91 -78.5t-138 -29.5t-138.5 29.5t-92 78.5t-51 116t-15.5 140zM193 1532l167 168h37l170 -168h-51 l-137 137l-139 -137h-47z" />
<glyph unicode="&#xfc;" horiz-adv-x="751" d="M80 354v1080h45v-1082q0 -66 12.5 -123t42 -102t77.5 -70.5t120 -25.5t120 25.5t77.5 70.5t42 102.5t12.5 122.5v1082h43v-1080q0 -74 -15.5 -140.5t-50.5 -115.5t-91 -78.5t-138 -29.5t-138.5 29.5t-92 78.5t-51 116t-15.5 140zM276 1528v164h41v-164h-41zM432 1528v164 h43v-164h-43z" />
<glyph unicode="&#xfd;" horiz-adv-x="864" d="M74 1434h45l313 -793l313 793h48l-340 -854v-580h-45v580zM383 1518l149 182h52l-160 -182h-41z" />
<glyph unicode="&#xfe;" horiz-adv-x="772" d="M82 0v1434h45v-283h238q82 0 139 -25.5t92 -71.5t50.5 -109.5t15.5 -139.5v-143q0 -172 -79 -254t-251 -82h-205v-326h-45zM127 369h205q152 0 218 68.5t66 221.5v148q0 66 -12 121t-42 95t-78 62.5t-119 22.5h-238v-739z" />
<glyph unicode="&#xff;" horiz-adv-x="864" d="M74 1434h45l313 -793l313 793h48l-340 -854v-580h-45v580zM332 1520v163h43v-163h-43zM489 1520v163h41v-163h-41z" />
<glyph unicode="&#x152;" horiz-adv-x="1148" d="M80 358v717q0 70 14.5 135.5t48 114.5t87 79t132.5 30h709v-43h-432v-643h362v-41h-362v-664h432v-43h-709q-80 0 -133 29.5t-86.5 79t-48 114t-14.5 135.5zM125 356q0 -61 12.5 -117.5t40 -99.5t73.5 -69.5t114 -26.5h229v1348h-229q-68 0 -114 -27t-73.5 -70t-40 -99 t-12.5 -118v-721z" />
<glyph unicode="&#x153;" horiz-adv-x="1148" d="M80 358v717q0 70 14.5 135.5t48 114.5t87 79t132.5 30h709v-43h-432v-643h362v-41h-362v-664h432v-43h-709q-80 0 -133 29.5t-86.5 79t-48 114t-14.5 135.5zM125 356q0 -61 12.5 -117.5t40 -99.5t73.5 -69.5t114 -26.5h229v1348h-229q-68 0 -114 -27t-73.5 -70t-40 -99 t-12.5 -118v-721z" />
<glyph unicode="&#x178;" horiz-adv-x="864" d="M74 1434h45l313 -793l313 793h48l-340 -854v-580h-45v580zM332 1520v163h43v-163h-43zM489 1520v163h41v-163h-41z" />
<glyph unicode="&#x2c6;" horiz-adv-x="512" d="M70 1569l168 168h36l168 -168h-49l-137 135l-139 -135h-47z" />
<glyph unicode="&#x2dc;" horiz-adv-x="544" d="M70 1579q18 35 45.5 57.5t64.5 24.5q29 0 54.5 -11.5t49 -26.5t46 -26.5t45.5 -11.5q25 2 42 21.5t29 42.5l29 -19q-16 -33 -39.5 -56.5t-58.5 -25.5q-27 0 -51.5 11.5t-47 27t-46 26.5t-48.5 11q-29 0 -49 -18.5t-37 -44.5z" />
<glyph unicode="&#x2000;" horiz-adv-x="883" />
<glyph unicode="&#x2001;" horiz-adv-x="1767" />
<glyph unicode="&#x2002;" horiz-adv-x="883" />
<glyph unicode="&#x2003;" horiz-adv-x="1767" />
<glyph unicode="&#x2004;" horiz-adv-x="589" />
<glyph unicode="&#x2005;" horiz-adv-x="441" />
<glyph unicode="&#x2006;" horiz-adv-x="294" />
<glyph unicode="&#x2007;" horiz-adv-x="294" />
<glyph unicode="&#x2008;" horiz-adv-x="220" />
<glyph unicode="&#x2009;" horiz-adv-x="353" />
<glyph unicode="&#x200a;" horiz-adv-x="98" />
<glyph unicode="&#x2010;" horiz-adv-x="524" d="M80 696v41h364v-41h-364z" />
<glyph unicode="&#x2011;" horiz-adv-x="524" d="M80 696v41h364v-41h-364z" />
<glyph unicode="&#x2012;" horiz-adv-x="524" d="M80 696v41h364v-41h-364z" />
<glyph unicode="&#x2013;" horiz-adv-x="790" d="M72 698v39h647v-39h-647z" />
<glyph unicode="&#x2014;" horiz-adv-x="1120" d="M72 698v39h977v-39h-977z" />
<glyph unicode="&#x2018;" horiz-adv-x="235" d="M82 1130v164l45 140h23l-23 -138v-166h-45z" />
<glyph unicode="&#x2019;" horiz-adv-x="235" d="M86 1130l23 138v166h45v-164l-45 -140h-23z" />
<glyph unicode="&#x201a;" horiz-adv-x="235" d="M86 -137l23 137v166h45v-164l-45 -139h-23z" />
<glyph unicode="&#x201c;" horiz-adv-x="342" d="M82 1130v164l45 140h23l-23 -138v-166h-45zM190 1130v164l43 140h25l-25 -138v-166h-43z" />
<glyph unicode="&#x201d;" horiz-adv-x="342" d="M82 1130l24 138v166h44v-164l-44 -140h-24zM190 1130l23 138v166h45v-164l-45 -140h-23z" />
<glyph unicode="&#x201e;" horiz-adv-x="356" d="M86 -137l23 137v166h45v-164l-45 -139h-23zM207 -137l24 137v166h43v-164l-43 -139h-24z" />
<glyph unicode="&#x2022;" horiz-adv-x="436" d="M123 717q0 41 27.5 68.5t66.5 27.5q41 0 68.5 -27.5t27.5 -68.5t-27.5 -68.5t-68.5 -27.5q-39 0 -66.5 27.5t-27.5 68.5z" />
<glyph unicode="&#x2026;" horiz-adv-x="430" d="M82 0v166h45v-166h-45zM193 0v166h43v-166h-43zM305 0v166h43v-166h-43z" />
<glyph unicode="&#x202f;" horiz-adv-x="353" />
<glyph unicode="&#x2039;" horiz-adv-x="331" d="M76 717l135 493h45l-135 -493l135 -496h-45z" />
<glyph unicode="&#x203a;" horiz-adv-x="331" d="M76 223l135 496l-135 493h43l137 -493l-137 -496h-43z" />
<glyph unicode="&#x205f;" horiz-adv-x="441" />
<glyph unicode="&#x20ac;" horiz-adv-x="815" d="M59 594v33h91v188h-91v33h91v233q0 74 15 139.5t50 115.5t91 79t138 29q80 0 135.5 -29t90.5 -79t50 -115.5t15 -139.5v-67h-43v69q0 63 -12 122t-42 103t-77 69.5t-117 25.5t-117.5 -25.5t-76.5 -69.5t-42 -102.5t-13 -122.5v-235h423v-33h-423v-188h423v-33h-423v-244 q0 -63 12 -120.5t42 -101.5t77 -69.5t118 -25.5q70 0 117 25.5t77 69.5t42 101.5t12 120.5v82h43v-80q0 -74 -15 -139.5t-50 -114.5t-90.5 -78.5t-135.5 -29.5q-82 0 -138 29.5t-91 78.5t-50 115t-15 139v242h-91z" />
<glyph unicode="&#x2122;" horiz-adv-x="1181" d="M33 1401v33h426v-33h-195v-696h-35v696h-196zM561 705v729h49l221 -666l224 666h49v-729h-35v671l-219 -659h-37l-219 659v-671h-33z" />
<glyph unicode="&#x25fc;" horiz-adv-x="1433" d="M0 0v1434h1434v-1434h-1434z" />
</font>
</defs>
</svg>
